Home » Tag cloud » Baliye
Category: TV Show
Nach Baliye 8 (2017) 720p - WEB HD - Season 8 - Episode 3 - Team IcTv

Nach Baliye 8 (2017) 720p - WEB HD - Season 8 - Episode 3 - Team IcTv

INFO:-

Format : Matroska
Format version : Version 4 / Version 2
File size : 593 MiB
Duration : 41 min 51 s
Overall bit rate : 1 979 kb/s

Video
ID : 1
Format : AVC
Format/Info : Advanced Video Codec
Format profile : [email protected]
Format settings, CABAC : Yes
Format settings, ReFrames : 1 frame
Format settings, GOP : M=1, N=25
Codec ID : V_MPEG4/ISO/AVC
Duration : 41 min 51 s
Bit rate mode : Constant
Bit rate : 2 000 kb/s
Width : 1 280 pixels
Height : 720 pixels
Display aspect ratio : 16:9
Frame rate mode : Constant
Frame rate : 25.000 FPS
Color space : YUV
Chroma subsampling : 4:2:0
Bit depth : 8 bits
Scan type : Progressive
Bits/(Pixel*Frame) : 0.087
Stream size : 574 MiB (97%)
Default : Yes
Forced : No

Audio
ID : 2
Format : AAC
Format/Info : Advanced Audio Codec
Format profile : LC
Codec ID : A_AAC
Duration : 41 min 51 s
Bit rate : 61.4 kb/s
Channel(s) : 2 channels
Channel positions : Front: L R
Sampling rate : 48.0 kHz
Frame rate : 46.875 FPS (1024 spf)
Compression mode : Lossy
Stream size : 18.4 MiB (3%)
Default : Yes
Forced : No

Screenshots:-

Nach Baliye 8 (2017) 720p - WEB HD - Season 8 - Episode 3 - Team IcTv Nach Baliye 8 (2017) 720p - WEB HD - Season 8 - Episode 3 - Team IcTv Nach Baliye 8 (2017) 720p - WEB HD - Season 8 - Episode 3 - Team IcTv Nach Baliye 8 (2017) 720p - WEB HD - Season 8 - Episode 3 - Team IcTv


Watch Online/Download :-

https://thevideo.me/jyf22s3p6bdl
http://vidup.me/9f8c41a4fv0t
https://www.flashx.tv/p6iwgki2a46i.html    
https://openload.co/f/4jKX9N0hJIk/NachBaliyeEpisode3.mkv.mp4
http://streamin.to/62qk0thpzepu


Single Fast Direct Download :-

https://clicknupload.link/jvf3lo900hiy
https://filescdn.com/w4ri4riwr92u/NachBaliyeEpisode3.mkv
http://www.heroupload.com/3b7fafc582394d0b/NachBaliyeEpisode3.mkv
http://rapidgator.net/file/4abc04046cec6dfcb3741100f93abcdc/NachBaliyeEpisode3.mkv.html

Download Now
Read More
Category: TV Show
Nach Baliye 8 (2017) 720p - WEB HD - Season 8 - Episode 2 - Team IcTv

Nach Baliye 8 (2017) 720p - WEB HD - Season 8 - Episode 2 - Team IcTv

INFO:-

Format : Matroska
Format version : Version 4 / Version 2
File size : 593 MiB
Duration : 41 min 53 s
Overall bit rate : 1 978 kb/s

Video
ID : 1
Format : AVC
Format/Info : Advanced Video Codec
Format profile : [email protected]
Format settings, CABAC : Yes
Format settings, ReFrames : 1 frame
Format settings, GOP : M=1, N=25
Codec ID : V_MPEG4/ISO/AVC
Duration : 41 min 53 s
Bit rate mode : Constant
Bit rate : 2 000 kb/s
Width : 1 280 pixels
Height : 720 pixels
Display aspect ratio : 16:9
Frame rate mode : Constant
Frame rate : 25.000 FPS
Color space : YUV
Chroma subsampling : 4:2:0
Bit depth : 8 bits
Scan type : Progressive
Bits/(Pixel*Frame) : 0.087
Stream size : 573 MiB (97%)
Default : Yes
Forced : No

Audio
ID : 2
Format : AAC
Format/Info : Advanced Audio Codec
Format profile : LC
Codec ID : A_AAC
Duration : 41 min 53 s
Bit rate : 61.4 kb/s
Channel(s) : 2 channels
Default : Yes
Forced : No

Screenshots:-

Nach Baliye 8 (2017) 720p - WEB HD - Season 8 - Episode 2 - Team IcTv Nach Baliye 8 (2017) 720p - WEB HD - Season 8 - Episode 2 - Team IcTv Nach Baliye 8 (2017) 720p - WEB HD - Season 8 - Episode 2 - Team IcTv Nach Baliye 8 (2017) 720p - WEB HD - Season 8 - Episode 2 - Team IcTv Nach Baliye 8 (2017) 720p - WEB HD - Season 8 - Episode 2 - Team IcTv


Watch Online/Download :-

https://thevideo.me/ihkrji590gwq
http://streamin.to/3bmy14adejxb
https://openload.co/f/wRb5eaqmyp0/Nach_Baliye_%282017%29720p.mkv
https://www.flashx.tv/0ewdu2hhyoea.html
http://vidup.me/e0gto1ykhr78


Single Fast Direct Download :-

https://filescdn.com/sah2bygh25zc
https://clicknupload.link/zn6gbj8u920x
http://rg.to/file/365cac3065f4448d641d7b678319d234/Nach_Baliye_(2017)720p.mkv.html
http://www.heroupload.com/a618596ca5b59864/Nach_Baliye_(2017)720p.mkv

Download Now
Read More